亚虎国际平台官网高品质亚虎国际yahu999论坛 - 提供各种亚虎国际首页亚虎国际yahu999下载

   
搜索
查看: 4015|回复: 11
go

[DIY作品] 教你如何用FEURIO制作自己喜欢的CD [复制链接]

Rank: 2
UID
574186 
积分
105 
威望
0  
磨币
17  
帖子
102 
1#
分享到:
发表于 2015-4-30 14:18 |只看该作者 |倒序浏览 |打印
看过很多网站,包括本论坛,关于用Feurio制作CD的帖子,但都是指在现成的.ape和.cue文件下完成,没有讲解如何下载自己喜欢的高品质亚虎国际首页.wav文件,制作CD。
其中,最重要,最关键的是如何制作.cue文件。举两个例子,一看就明白了。很好理解。
    例1:这是最早不理解的时候,为了保险起见,做的。
PERFORMER "群星"
TITLE "精选十四首"
FILE "精选十四首01.wav"WAVE  
    TRACK 01 AUDIO
    TITLE "精选十四首01"
    PERFORMER "群星"
    INDEX 01 00:00:00
FILE "精选十四首02.wav"WAVE  
    TRACK 02 AUDIO
    TITLE "精选十四首02"
    PERFORMER "群星"
    INDEX 01 00:00:00
FILE "精选十四首03.wav"WAVE   
    TRACK 03 AUDIO
    TITLE "精选十四首03"
    PERFORMER "群星"
    INDEX 01 00:00:00
FILE "精选十四首04.wav"WAVE
   TRACK 04 AUDIO
   TITLE "精选十四首04"
   PERFORMER "群星"
   INDEX 01 00:00:00
FILE "精选十四首05.wav"WAVE  
   TRACK 05 AUDIO
   TITLE "精选十四首05"
   PERFORMER "群星"
   INDEX 01 00:00:00
FILE "精选十四首06.wav"WAVE
   TRACK 06 AUDIO
   TITLE "精选十四首06"
   PERFORMER "群星"
   INDEX 01 00:00:00
FILE "精选十四首07.wav"WAVE  
   TRACK 07 AUDIO
   TITLE "精选十四首07"
   PERFORMER "群星"
   INDEX 01 00:00:00
FILE "精选十四首08.wav"WAVE  
   TRACK 08 AUDIO
   TITLE "精选十四首08"
   PERFORMER "群星"
   INDEX 01 00:00:00
FILE "精选十四首09.wav"WAVE  
   TRACK 09 AUDIO
   TITLE "精选十四首09"
   PERFORMER "群星"
   INDEX 01 00:00:00
FILE "精选十四首10.wav"WAVE  
   TRACK 10 AUDIO
   TITLE "精选十四首10"
   PERFORMER "群星"
   INDEX 01 00:00:00
FILE "精选十四首11.wav"WAVE   
   TRACK 11 AUDIO
   TITLE "精选十四首11"
   PERFORMER "群星"
   INDEX 01 00:00:00
FILE "精选十四首12.wav"WAVE   
   TRACK 12 AUDIO
   TITLE "精选十四首12"
   PERFORMER "群星"
   INDEX 01 00:00:00
FILE "精选十四首13.wav"WAVE   
   TRACK 13 AUDIO
   TITLE "精选十四首13"
   PERFORMER "群星"
   INDEX 01 00:00:00
FILE "精选十四首14.wav"WAVE  
   TRACK 14 AUDIO
   TITLE "精选十四首14"
   PERFORMER "群星"
   INDEX 01 00:00:00

例2:这是在第一次的基础上,做的。
PERFORMER "群星"
TITLE "精选纯亚虎国际yahu999"
FILE "Ray Lynch - Celestial Soda Pop.wav"WAVE  
    TRACK 01 AUDIO
    TITLE "Ray Lynch - Celestial Soda Pop"
    PERFORMER "群星"
    INDEX 01 00:00:00
FILE "伯恩斯坦 - 萬寶路進行曲 (交响樂).wav"WAVE  
    TRACK 02 AUDIO
    TITLE "伯恩斯坦 - 萬寶路進行曲 (交响樂)"
    PERFORMER "群星"
    INDEX 01 00:00:00
FILE "大河舞團 - 大河之舞 (踢踏舞).wav"WAVE   
    TRACK 03 AUDIO
    TITLE "大河舞團 - 大河之舞 (踢踏舞)"
    PERFORMER "群星"
    INDEX 01 00:00:00
FILE "高山流水 (古箏).wav"WAVE
   TRACK 04 AUDIO
   TITLE "高山流水 (古箏)"
   PERFORMER "群星"
   INDEX 01 00:00:00
FILE "鬼太鼓 - 大太鼓 (打击樂).wav"WAVE  
   TRACK 05 AUDIO
   TITLE "鬼太鼓 - 大太鼓 (打击樂)"
   PERFORMER "群星"
   INDEX 01 00:00:00
FILE "郭峰 - 雪花飛揚 (電子樂).wav"WAVE
   TRACK 06 AUDIO
   TITLE "郭峰 - 雪花飛揚 (電子樂)"
   PERFORMER "群星"
   INDEX 01 00:00:00
FILE "哈恰圖良 - 馬刀舞曲 (小提琴).wav"WAVE  
   TRACK 07 AUDIO
   TITLE "哈恰圖良 - 馬刀舞曲 (小提琴)"
   PERFORMER "群星"
   INDEX 01 00:00:00
FILE "亨德尔 - 水上音樂序曲 (弦樂).wav"WAVE  
   TRACK 08 AUDIO
   TITLE "亨德尔 - 水上音樂序曲 (弦樂)"
   PERFORMER "群星"
   INDEX 01 00:00:00
FILE "回家.wav"WAVE  
   TRACK 09 AUDIO
   TITLE "回家"
   PERFORMER "群星"
   INDEX 01 00:00:00
FILE "江建民 - 斯卡布羅集市 (吉他).wav"WAVE  
   TRACK 10 AUDIO
   TITLE "江建民 - 斯卡布羅集市 (吉他)"
   PERFORMER "群星"
   INDEX 01 00:00:00
FILE "老施特勞斯 - 拉德茨基進行曲 (管弦樂).wav"WAVE   
   TRACK 11 AUDIO
   TITLE "老施特勞斯 - 拉德茨基進行曲 (管弦樂)"
   PERFORMER "群星"
   INDEX 01 00:00:00
FILE "劉星 - 閑雲孤鶴 (中阮).wav"WAVE   
   TRACK 12 AUDIO
   TITLE "劉星 - 閑雲孤鶴 (中阮)"
   PERFORMER "群星"
   INDEX 01 00:00:00
FILE "木村好夫 - 柳濑小鎮 (吉他).wav"WAVE   
   TRACK 13 AUDIO
   TITLE "木村好夫 - 柳濑小鎮 (吉他)"
   PERFORMER "群星"
   INDEX 01 00:00:00
FILE "帕格尼尼 - 熱烈的快板 (弦樂).wav"WAVE  
   TRACK 14 AUDIO
   TITLE "帕格尼尼 - 熱烈的快板 (弦樂)"
   PERFORMER "群星"
   INDEX 01 00:00:00
FILE "小施特勞斯 - 狩猎波尔卡 (管弦樂).wav"WAVE  
   TRACK 15 AUDIO
   TITLE "小施特勞斯 - 狩猎波尔卡 (管弦樂)"
   PERFORMER "群星"
   INDEX 01 00:00:00
FILE "閻學敏 - 鼓詩 (打击樂).wav"WAVE  
   TRACK 16 AUDIO
   TITLE "閻學敏 - 鼓詩 (打击樂)"
   PERFORMER "群星"
   INDEX 01 00:00:00
FILE "知音 (古箏).wav"WAVE  
   TRACK 17 AUDIO
   TITLE "知音 (古箏)"
   PERFORMER "群星"
   INDEX 01 00:00:00

只需把制作好的,cue文件与亚虎国际yahu999源文件放在一个文件夹就可以罗。然后就可以按照FEURIO的教程制作了。最初的时候,我是直接把wav文件导进去,没有制作.cue 文件,而且从网上下载的那种格式根本就匹配,就直接刻录,结果,后面的都成了一首歌啦,而且音质也有问题。
QQ图片20150430135618.png (16.16 KB, 下载次数: 1) QQ图片20150430135618.png
Rank: 4
UID
774777 
积分
2878 
威望
7  
磨币
248  
帖子
2575 
金牛座
2#
发表于 2015-4-30 18:43 |只看该作者
小白不明白请教一下
楼主的两个CUE文件时间轴都是INDEX 01 00:00:00,不明白啊
另外我有很多FLAC格式的,用Feurio怎么刻录,参数如何设置呢。
一头雾水,
独坐池塘如虎踞 绿荫树下养精神
春来我不先开口 哪个虫儿敢作声
Rank: 4
UID
774777 
积分
2878 
威望
7  
磨币
248  
帖子
2575 
金牛座
3#
发表于 2015-4-30 18:48 |只看该作者
另外,我百度了一下,很多都是人云亦云的,和具体操作差的很远
谢谢
独坐池塘如虎踞 绿荫树下养精神
春来我不先开口 哪个虫儿敢作声
Rank: 2
UID
574186 
积分
105 
威望
0  
磨币
17  
帖子
102 
4#
发表于 2015-5-5 14:59 |只看该作者

修订发布不成

本帖最后由 machyng 于 2015-5-5 15:13 编辑

不好意思,发布不了
Rank: 2
UID
574186 
积分
105 
威望
0  
磨币
17  
帖子
102 
5#
发表于 2015-5-5 15:14 |只看该作者
回复 fffffppplll 的帖子

可以看一下百度百科,cue文件。
Rank: 1
UID
983680 
积分
23 
威望
0  
磨币
0  
帖子
23 
6#
发表于 2015-5-6 04:47 |只看该作者
不要用百度百科,都是乱写的,上wikipedia
Rank: 2
UID
309130 
积分
406 
威望
0  
磨币
31  
帖子
378 
7#
发表于 2015-5-19 17:37 |只看该作者
我不管是APE还是FLAC都是转成WAV,再用NIRO刻碟。
Rank: 2
UID
891219 
积分
534 
威望
0  
磨币
3650  
帖子
552 
8#
发表于 2015-5-22 21:30 |只看该作者
制作CD的工具很多,最小巧的要算是软碟通了,最方便应该是gBurner,最有名的应该是NIRO,萝卜白菜,各有所爱,
Rank: 1
UID
1015154 
积分
13 
威望
0  
磨币
5  
帖子
14 
9#
发表于 2015-7-3 09:23 |只看该作者
可以用imgburn自动生成cue文件
Rank: 1
UID
686091 
积分
13 
威望
0  
磨币
0  
帖子
13 
10#
发表于 2016-1-27 23:44 |只看该作者
謝謝分享
Rank: 1
UID
1252991 
积分
11 
威望
0  
磨币
0  
帖子
9 
11#
发表于 2016-7-19 11:06 |只看该作者
我用NIRO试过可以
Rank: 2
UID
1449199 
积分
34 
威望
0  
磨币
94  
帖子
65 
12#
发表于 2017-12-21 15:39 |只看该作者
学习了,还不明白,希望看到更多的讨论。
‹ 上一主题|下一主题
你需要登录后才可以回帖 登录 | 注册

公告 关闭


密码找回

最近发现有少量会员帐号无法登陆,经后台核实后可在此贴申请找回密码。对于没有被盗的会员请立即验证激活帐号邮箱。 回复请提供帐号及常用邮箱一个。

查看
Archiver|亚虎国际平台官网高品质亚虎国际yahu999论坛 - MOOFEEL.COM GMT+8, 2018-1-19 20:38 , Processed in 0.227573 second(s), 17 queries .
Powered by-亚虎国际首页亚虎国际yahu999 X3.1 © 2001-2010 Moofeel Inc. 本站所有数据均来自网友分享,本站不提供下载,内容如侵犯您的权益请联系:imoofeel@126.com,我们会第一时间删除。