亚虎国际平台官网高品质亚虎国际yahu999论坛 - 提供各种亚虎国际首页亚虎国际yahu999下载

   
搜索
查看: 4308|回复: 46
go

[外文] 《Larger Than Life》后街男孩[DVD原版/257MB/VOB][百度云] [复制链接]

Rank: 24Rank: 24Rank: 24Rank: 24Rank: 24Rank: 24
UID
2654 
积分
34130 
威望
3124  
磨币
8247  
帖子
19918 
版主专用勋章 社区巡警勋章 亚虎国际yahu999宗师勋章 SB会员专用勋章 摩羯座
1#
发表于 2012-1-3 21:12 |只看该作者 |倒序浏览 |打印
本帖最后由 changshu008 于 2017-3-13 18:19 编辑

MV名称:Larger Than Life(全球20大最烧钱MV之一)
歌手:后街男孩
资源格式:VOB




E:\高清MV\moofeel.com_Larger Than Life.vob
  General
    Complete name : E:\高清MV\moofeel.com_Larger Than Life.vob
    Format : MPEG-PS
    File size : 257 MiB
    Duration : 5mn 25s
    Overall bit rate : 6 623 Kbps
  Video #224
    ID : 224 (0xE0)
    Format : MPEG Video
    Format version : Version 2
    Format profile : Main@Main
    Format settings, BVOP : Yes
    Format settings, Matrix : Default
    Format settings, GOP : M=3, N=13
    Duration : 5mn 25s
    Bit rate mode : Variable
    Bit rate : 5 883 Kbps
    Nominal bit rate : 8 000 Kbps
    Width : 720 pixels
    Height : 480 pixels
    Display aspect ratio : 4:3
    Frame rate : 29.970 fps
    Standard : NTSC
    Color space : YUV
    Chroma subsampling : 4:2:0
    Bit depth : 8 bits
    Scan type : Interlaced
    Scan order : Top Field First
    Bits/(Pixel*Frame) : 0.568
    Stream size : 229 MiB (89%)
  Audio #128
    ID : 128 (0x80)
    Format : AC-3
    Format/Info : Audio Coding 3
    Mode extension : CM (complete main)
    Duration : 5mn 25s
    Bit rate mode : Constant
    Bit rate : 224 Kbps
    Channel(s) : 2 channels
    Channel positions : Front: L R
    Sampling rate : 48.0 KHz
    Bit depth : 16 bits
    Video delay : 26ms
    Stream size : 8.70 MiB (3%)
  Audio #129
    ID : 129 (0x81)
    Format : AC-3
    Format/Info : Audio Coding 3
    Mode extension : CM (complete main)
    Duration : 5mn 25s
    Bit rate mode : Constant
    Bit rate : 384 Kbps
    Channel(s) : 6 channels
    Channel positions : Front: L C R, Side: L R, LFE
    Sampling rate : 48.0 KHz
    Bit depth : 16 bits
    Video delay : 26ms
    Stream size : 14.9 MiB (6%)

下载地址:
游客,如果你要查看本帖隐藏内容请回复
Rank: 8Rank: 8
UID
3865 
积分
13150 
威望
43  
磨币
217  
帖子
12251 
2#
发表于 2012-1-3 21:15 |只看该作者
之一啊?呵呵
不如出个专题啊?
Rank: 2
UID
132001 
积分
31 
威望
0  
磨币
1  
帖子
46 
3#
发表于 2012-1-9 09:07 |只看该作者
帅气后街男孩
Rank: 2
UID
142300 
积分
48 
威望
0  
磨币
173  
帖子
64 
4#
发表于 2012-2-7 19:28 |只看该作者
(全球20大最烧钱MV之一)
恐怖
Rank: 1
UID
160757 
积分
威望
0  
磨币
0  
帖子
8 
5#
发表于 2012-3-18 13:44 |只看该作者
很烧钱的mv呀!
Rank: 1
UID
108117 
积分
28 
威望
0  
磨币
0  
帖子
96 
6#
发表于 2012-3-24 16:45 |只看该作者
经典老歌!支持!
Rank: 1
UID
181635 
积分
威望
0  
磨币
0  
帖子
1 
7#
发表于 2012-6-3 07:52 |只看该作者
ddddddddddddddddddddddd
Rank: 1
UID
182269 
积分
威望
0  
磨币
0  
帖子
2 
8#
发表于 2012-6-4 21:49 |只看该作者
我喜欢
Rank: 1
UID
182269 
积分
威望
0  
磨币
0  
帖子
2 
9#
发表于 2012-6-4 21:50 |只看该作者
回复 gangtzs 的帖子

没有提出码
Rank: 2
UID
115304 
积分
290 
威望
0  
磨币
62  
帖子
298 
10#
发表于 2012-6-5 00:32 |只看该作者
最喜欢bs了,,年轻时的回忆啊
Rank: 1
UID
121257 
积分
威望
0  
磨币
1  
帖子
4 
11#
发表于 2012-6-15 07:49 |只看该作者
制作很科幻.感谢提供分享.
Rank: 1
UID
193300 
积分
威望
0  
磨币
0  
帖子
4 
12#
发表于 2012-7-6 18:21 |只看该作者
好东西,一定下,感谢楼主分享
Rank: 1
UID
193801 
积分
威望
0  
磨币
0  
帖子
9 
13#
发表于 2012-7-8 02:17 |只看该作者
好东西,一定下,感谢楼主分享
Rank: 1
UID
195078 
积分
威望
0  
磨币
0  
帖子
4 
14#
发表于 2012-7-11 18:14 |只看该作者
非常好。
Rank: 1
UID
25990 
积分
威望
0  
磨币
1  
帖子
4 
15#
发表于 2012-9-27 12:46 |只看该作者
非常好。
‹ 上一主题|下一主题
你需要登录后才可以回帖 登录 | 注册

公告 关闭


密码找回

最近发现有少量会员帐号无法登陆,经后台核实后可在此贴申请找回密码。 回复请提供帐号及常用邮箱一个。 或将以上信息发送至imoofeel@126.com

查看
Archiver|亚虎国际平台官网高品质亚虎国际yahu999论坛 - MOOFEEL.COM GMT+8, 2018-8-18 13:18 , Processed in 0.101789 second(s), 17 queries .
Powered by-亚虎国际首页亚虎国际yahu999 X3.1 © 2001-2010 Moofeel Inc. 本站所有数据均来自网友分享,本站不提供下载,内容如侵犯您的权益请联系:imoofeel@126.com,我们会第一时间删除。