亚虎国际平台官网高品质亚虎国际yahu999论坛 - 提供各种亚虎国际首页亚虎国际yahu999下载

   
搜索
查看: 14748|回复: 470
go

[其它] 《美丽的日本》JVC高清演示[蓝光原版/2.38GB/TS][百度云]   [复制链接]

Rank: 24Rank: 24Rank: 24Rank: 24Rank: 24Rank: 24
UID
2654 
积分
32026 
威望
2612  
磨币
5939  
帖子
19376 
社区巡警勋章 亚虎国际yahu999宗师勋章 影视专家勋章 女狼专用勋章 大胸妹勋章 摩羯座
1#
分享到:
发表于 2011-7-4 13:05 |只看该作者 |倒序浏览 |打印
本帖最后由 changshu008 于 2017-4-19 21:38 编辑

MV名称:美丽的日本
类型:JVC高清演示
资源格式:TS




E:\moofeel.com_JVC蓝光演示 - 美丽的日本.ts
  General #1002
    ID : 1002 (0x3EA)
    Complete name : E:\moofeel.com_JVC蓝光演示 - 美丽的日本.ts
    Format : MPEG-TS
    File size : 2.38 GiB
    Duration : 14mn 6s
    Overall bit rate : 24.2 Mbps
  Video #17
    ID : 17 (0x11)
    Menu ID : 1 (0x1)
    Format : MPEG Video
    Format version : Version 2
    Format profile : Main@High
    Format settings, BVOP : Yes
    Format settings, Matrix : Default
    Codec ID : 2
    Duration : 14mn 6s
    Bit rate mode : Variable
    Bit rate : 22.4 Mbps
    Nominal bit rate : 45.0 Mbps
    Width : 1 920 pixels
    Height : 1 080 pixels
    Display aspect ratio : 16:9
    Frame rate : 29.970 fps
    Standard : Component
    Color space : YUV
    Chroma subsampling : 4:2:0
    Bit depth : 8 bits
    Scan type : Interlaced
    Scan order : Top Field First
    Compression mode : Lossy
    Bits/(Pixel*Frame) : 0.360
    Stream size : 2.21 GiB (93%)
  Audio #20
    ID : 20 (0x14)
    Menu ID : 1 (0x1)
    Format : AC-3
    Format/Info : Audio Coding 3
    Mode extension : CM (complete main)
    Codec ID : 129
    Duration : 14mn 6s
    Bit rate mode : Constant
    Bit rate : 576 Kbps
    Channel(s) : 2 channels
    Channel positions : Front: L R
    Sampling rate : 48.0 KHz
    Bit depth : 16 bits
    Compression mode : Lossy
    Delay relative to video : -411ms
    Stream size : 58.1 MiB (2%)

下载地址:
游客,如果你要查看本帖隐藏内容请回复
已有 1 人评分磨币 收起 理由
zzn85 + 2
总评分: 磨币 + 2   查看全部评分
Rank: 8Rank: 8
UID
3865 
积分
13150 
威望
43  
磨币
217  
帖子
12261 
2#
发表于 2011-7-4 13:06 |只看该作者
这地方貌似正适合现在去玩,看着挺凉快的
Rank: 2
UID
972 
积分
348 
威望
0  
磨币
14  
帖子
347 
3#
发表于 2011-7-10 11:17 |只看该作者
谢谢,辛苦了
Rank: 1
UID
82109 
积分
11 
威望
0  
磨币
0  
帖子
11 
4#
发表于 2011-7-10 19:13 |只看该作者
不错不错第一个
Rank: 2
UID
972 
积分
348 
威望
0  
磨币
14  
帖子
347 
5#
发表于 2011-7-11 08:58 |只看该作者
真是拉风的视频谢谢楼主分享
Rank: 1
UID
82109 
积分
11 
威望
0  
磨币
0  
帖子
11 
6#
发表于 2011-7-11 12:39 |只看该作者
不错不错第一个
Rank: 1
UID
82725 
积分
威望
0  
磨币
0  
帖子
9 
7#
发表于 2011-7-11 18:47 |只看该作者
希望了解日本。
Rank: 1
UID
82734 
积分
威望
0  
磨币
0  
帖子
1 
8#
发表于 2011-7-11 20:29 |只看该作者
谢谢楼主分享,看图实在是太美了!
Rank: 2
UID
9995 
积分
40 
威望
0  
磨币
19  
帖子
51 
9#
发表于 2011-7-11 22:56 |只看该作者
看看  试试
Rank: 4
UID
68872 
积分
1634 
威望
0  
磨币
1034  
帖子
1199 
10#
发表于 2011-7-13 13:47 |只看该作者
不错啊,下来看看,谢谢了!
Rank: 2
UID
20029 
积分
224 
威望
0  
磨币
1050  
帖子
269 
11#
发表于 2011-7-13 14:00 |只看该作者
谢谢分享。看看高清的风景也不错。呵呵
Rank: 2
UID
52206 
积分
372 
威望
0  
磨币
216  
帖子
354 
12#
发表于 2011-7-14 12:37 |只看该作者
回复 changshu008 的帖子

我来看看···
Rank: 1
UID
83200 
积分
威望
0  
磨币
0  
帖子
8 
13#
发表于 2011-7-15 10:31 |只看该作者
谢谢楼主分享,谢谢楼主分享
Rank: 2
UID
70088 
积分
76 
威望
0  
磨币
5  
帖子
70 
14#
发表于 2011-7-15 19:45 |只看该作者
我就喜欢高清演示片子谢谢
Rank: 1
UID
83364 
积分
25 
威望
0  
磨币
0  
帖子
25 
15#
发表于 2011-7-17 16:21 |只看该作者
这就是中这就是中这就是中
‹ 上一主题|下一主题
你需要登录后才可以回帖 登录 | 注册

公告 关闭


密码找回

最近发现有少量会员帐号无法登陆,经后台核实后可在此贴申请找回密码。对于没有被盗的会员请立即验证激活帐号邮箱。 回复请提供帐号及常用邮箱一个。

查看
Archiver|亚虎国际平台官网高品质亚虎国际yahu999论坛 - MOOFEEL.COM GMT+8, 2017-12-11 19:09 , Processed in 0.323720 second(s), 18 queries .
Powered by-亚虎国际首页亚虎国际yahu999 X3.1 © 2001-2010 Moofeel Inc. 本站所有数据均来自网友分享,本站不提供下载,内容如侵犯您的权益请联系:imoofeel@126.com,我们会第一时间删除。