亚虎国际平台官网高品质亚虎国际yahu999论坛 - 提供各种亚虎国际首页亚虎国际yahu999下载

   
搜索
查看: 24778|回复: 940
go

[其它] 《这就是中国》松下高清演示[720P/907MB/M2TS][百度云]   [复制链接]

Rank: 24Rank: 24Rank: 24Rank: 24Rank: 24Rank: 24
UID
2654 
积分
32803 
威望
2802  
磨币
7095  
帖子
19585 
版主专用勋章 社区巡警勋章 亚虎国际yahu999宗师勋章 影视专家勋章 SB会员专用勋章 女狼专用勋章 大胸妹勋章 摩羯座
1#
发表于 2011-7-4 12:56 |只看该作者 |倒序浏览 |打印
本帖最后由 changshu008 于 2017-4-1 13:48 编辑

MV名称:这就是中国
类型:松下高清演示
资源格式:M2TS


小日本很少见的关于中国的高清演示片,虽然是720P,但是从媒体信息中可以看到视频和音频码率都相当高,达到了1080P的程度,清晰度也比普通720P好得多


E:\moofeel.com_松下蓝光演示 - 这就是中国.m2ts
  General #0
    ID : 0 (0x0)
    Complete name : E:\moofeel.com_松下蓝光演示 - .m2ts
    Format : BDAV
    Format/Info : Blu-ray Video
    File size : 907 MiB
    Duration : 3mn 25s
    Overall bit rate : 36.9 Mbps
    Maximum Overall bit rate : 48.0 Mbps
  Video #4113
    ID : 4113 (0x1011)
    Menu ID : 1 (0x1)
    Format : AVC
    Format/Info : Advanced Video Codec
    Format profile : High@L4.1
    Format settings, CABAC : Yes
    Format settings, ReFrames : 3 frames
    Format settings, GOP : M=3, N=30
    Codec ID : 27
    Duration : 3mn 25s
    Bit rate : 33.9 Mbps
    Width : 1 280 pixels
    Height : 720 pixels
    Display aspect ratio : 16:9
    Frame rate : 59.940 fps
    Color space : YUV
    Chroma subsampling : 4:2:0
    Bit depth : 8 bits
    Scan type : Progressive
    Bits/(Pixel*Frame) : 0.614
    Stream size : 830 MiB (92%)
  Audio #4352
    ID : 4352 (0x1100)
    Menu ID : 1 (0x1)
    Format : DTS
    Format/Info : Digital Theater Systems
    Codec ID : 130
    Duration : 3mn 25s
    Bit rate mode : Constant
    Bit rate : 1 510 Kbps
    Channel(s) : 6 channels
    Channel positions : Front: L C R, Side: L R, LFE
    Sampling rate : 48.0 KHz
    Bit depth : 16 bits
    Compression mode : Lossy
    Stream size : 36.9 MiB (4%)

下载地址:
游客,如果你要查看本帖隐藏内容请回复
Rank: 8Rank: 8
UID
3865 
积分
13150 
威望
43  
磨币
217  
帖子
12255 
2#
发表于 2011-7-4 13:01 |只看该作者
很漂亮啊,呵呵
最后那个是哪里啊?
好像仙境一样,想去玩
Rank: 2
UID
45295 
积分
219 
威望
0  
磨币
36  
帖子
204 
3#
发表于 2011-7-4 22:01 |只看该作者
拿下,谢谢分享
Rank: 2
UID
4091 
积分
213 
威望
0  
磨币
17  
帖子
222 
4#
发表于 2011-7-6 01:21 |只看该作者
谢谢分享谢谢分享
Rank: 2
UID
33974 
积分
146 
威望
0  
磨币
345  
帖子
136 
5#
发表于 2011-7-6 13:06 |只看该作者
回复 changshu008 的帖子

谢谢了,收下了;
Rank: 1
UID
82109 
积分
11 
威望
0  
磨币
0  
帖子
11 
6#
发表于 2011-7-7 21:27 |只看该作者
小段不错的顶一个
Rank: 1
UID
78873 
积分
28 
威望
0  
磨币
0  
帖子
27 
7#
发表于 2011-7-8 08:21 |只看该作者
这个好啊!!支持
Rank: 1
UID
82353 
积分
威望
0  
磨币
0  
帖子
9 
8#
发表于 2011-7-9 09:13 |只看该作者
好,我要下
Rank: 3Rank: 3
UID
55643 
积分
650 
威望
0  
磨币
2401  
帖子
579 
9#
发表于 2011-7-9 09:18 |只看该作者
真漂亮啊!下载瞧瞧.
Rank: 1
UID
82725 
积分
威望
0  
磨币
0  
帖子
9 
10#
发表于 2011-7-11 18:49 |只看该作者
好漂亮的演示碟熬。
Rank: 2
UID
52206 
积分
372 
威望
0  
磨币
216  
帖子
354 
11#
发表于 2011-7-14 12:42 |只看该作者
回复 changshu008 的帖子

喜欢,谢谢楼主
Rank: 1
UID
83051 
积分
26 
威望
0  
磨币
14  
帖子
26 
12#
发表于 2011-7-15 09:02 |只看该作者
这么好看,顶一下
Rank: 2
UID
36741 
积分
185 
威望
0  
磨币
84  
帖子
178 
13#
发表于 2011-7-15 09:17 |只看该作者
这么好看,顶一下
Rank: 1
UID
83200 
积分
威望
0  
磨币
0  
帖子
8 
14#
发表于 2011-7-15 10:03 |只看该作者
谢谢楼主,谢谢楼主
Rank: 1
UID
83207 
积分
威望
0  
磨币
0  
帖子
3 
15#
发表于 2011-7-15 10:37 |只看该作者
小段不错的顶一个
‹ 上一主题|下一主题
你需要登录后才可以回帖 登录 | 注册

公告 关闭


密码找回

最近发现有少量会员帐号无法登陆,经后台核实后可在此贴申请找回密码。 回复请提供帐号及常用邮箱一个。 或将以上信息发送至imoofeel@126.com

查看
Archiver|亚虎国际平台官网高品质亚虎国际yahu999论坛 - MOOFEEL.COM GMT+8, 2018-4-26 07:51 , Processed in 0.129790 second(s), 18 queries .
Powered by-亚虎国际首页亚虎国际yahu999 X3.1 © 2001-2010 Moofeel Inc. 本站所有数据均来自网友分享,本站不提供下载,内容如侵犯您的权益请联系:imoofeel@126.com,我们会第一时间删除。