亚虎国际平台官网高品质亚虎国际yahu999论坛 - 提供各种亚虎国际首页亚虎国际yahu999下载

   
搜索
查看: 22707|回复: 523
go

[中文] 《十年》陈奕迅[DVD原版/105MB/VOB][百度云]   [复制链接]

Rank: 24Rank: 24Rank: 24Rank: 24Rank: 24Rank: 24
UID
2654 
积分
33696 
威望
3016  
磨币
7987  
帖子
19807 
版主专用勋章 社区巡警勋章 亚虎国际yahu999宗师勋章 SB会员专用勋章 摩羯座
1#
发表于 2011-6-28 13:05 |只看该作者 |倒序浏览 |打印
本帖最后由 changshu008 于 2015-11-4 10:00 编辑

MV名称:十年
歌手:陈奕迅
资源格式:VOB




D:\高清MV区\moofeel.com_陈奕迅 - 十年.vob
  General
    Complete name : D:\高清MV区\moofeel.com_陈奕迅 - 十年.vob
    Format : MPEG-PS
    File size : 106 MiB
    Duration : 3mn 25s
    Overall bit rate : 4 333 Kbps
  Video #224
    ID : 224 (0xE0)
    Format : MPEG Video
    Format version : Version 2
    Format profile : Main@Main
    Format settings, BVOP : Yes
    Format settings, Matrix : Default
    Duration : 3mn 25s
    Bit rate mode : Variable
    Bit rate : 4 055 Kbps
    Nominal bit rate : 8 200 Kbps
    Width : 720 pixels
    Height : 480 pixels
    Display aspect ratio : 4:3
    Frame rate : 29.970 fps
    Standard : NTSC
    Color space : YUV
    Chroma subsampling : 4:2:0
    Bit depth : 8 bits
    Scan type : Interlaced
    Scan order : Top Field First
    Compression mode : Lossy
    Bits/(Pixel*Frame) : 0.392
    Stream size : 99.2 MiB (94%)
  Audio #189-128
    ID : 189 (0xBD)-128 (0x80)
    Format : AC-3
    Format/Info : Audio Coding 3
    Mode extension : CM (complete main)
    Muxing mode : DVD-Video
    Duration : 3mn 24s
    Bit rate mode : Constant
    Bit rate : 192 Kbps
    Channel(s) : 2 channels
    Channel positions : Front: L R
    Sampling rate : 48.0 KHz
    Bit depth : 16 bits
    Compression mode : Lossy
    Delay relative to video : -66ms
    Stream size : 4.68 MiB (4%)
  Menu

下载地址:
游客,如果你要查看本帖隐藏内容请回复
Rank: 8Rank: 8
UID
3865 
积分
13150 
威望
43  
磨币
217  
帖子
12251 
2#
发表于 2011-6-28 19:59 |只看该作者
这首歌我是蛮喜欢的
不过是喜欢粤语原版的明年今日呢
我觉得汉语版的歌词写的不是太好
Rank: 1
UID
81506 
积分
23 
威望
0  
磨币
6  
帖子
23 
3#
发表于 2011-7-3 11:38 |只看该作者
陈奕迅的个还是粤语比较好听
Rank: 2
UID
45295 
积分
219 
威望
0  
磨币
36  
帖子
204 
4#
发表于 2011-7-6 20:30 |只看该作者
拿下了,谢谢分享
Rank: 2
UID
17560 
积分
65 
威望
0  
磨币
163  
帖子
135 
5#
发表于 2011-7-10 20:58 |只看该作者
陈奕迅十年
Rank: 2
UID
41951 
积分
217 
威望
0  
磨币
379  
帖子
328 
6#
发表于 2011-7-12 18:20 |只看该作者
不过是喜欢粤语原版的明年今日呢
我觉得汉语版的歌词写的不是太好
已有 1 人评分经验 收起 理由
changshu008 -2 请勿复制他人回复
总评分: 经验 -2   查看全部评分
Rank: 1
UID
82861 
积分
威望
0  
磨币
0  
帖子
2 
7#
发表于 2011-7-13 15:22 |只看该作者
11111111111111111111111111
已有 1 人评分经验 收起 理由
zzn85 -2 恶意灌水
总评分: 经验 -2   查看全部评分
UID
70600 
积分
57 
威望
0  
磨币
101  
帖子
48 
8#
发表于 2011-7-16 10:07 |只看该作者
提示: 作者被禁止或删除 内容自动屏蔽
Rank: 1
UID
49372 
积分
13 
威望
0  
磨币
4  
帖子
12 
9#
发表于 2011-7-22 21:44 |只看该作者
十年之后再听这首歌,应该还有感动
Rank: 2
UID
32037 
积分
130 
威望
0  
磨币
206  
帖子
89 
10#
发表于 2011-7-23 22:41 |只看该作者
顶一下 收藏了
Rank: 1
UID
6939 
积分
37 
威望
0  
磨币
16  
帖子
40 
11#
发表于 2011-7-28 11:05 |只看该作者
很好啊,欣赏。
Rank: 2
UID
52206 
积分
372 
威望
0  
磨币
216  
帖子
354 
12#
发表于 2011-8-13 14:05 |只看该作者
喜欢这歌············
Rank: 2
UID
49420 
积分
42 
威望
0  
磨币
3  
帖子
39 
13#
发表于 2011-8-18 11:09 |只看该作者
陈奕迅的个还是粤语比较好听
Rank: 2
UID
49420 
积分
42 
威望
0  
磨币
3  
帖子
39 
14#
发表于 2011-8-18 11:10 |只看该作者
陈奕迅的个还是粤语比较好听
Rank: 1
UID
92025 
积分
23 
威望
0  
磨币
14  
帖子
23 
15#
发表于 2011-9-9 16:23 |只看该作者
thanks
‹ 上一主题|下一主题
你需要登录后才可以回帖 登录 | 注册

公告 关闭


密码找回

最近发现有少量会员帐号无法登陆,经后台核实后可在此贴申请找回密码。 回复请提供帐号及常用邮箱一个。 或将以上信息发送至imoofeel@126.com

查看
Archiver|亚虎国际平台官网高品质亚虎国际yahu999论坛 - MOOFEEL.COM GMT+8, 2018-7-21 10:12 , Processed in 0.187542 second(s), 18 queries .
Powered by-亚虎国际首页亚虎国际yahu999 X3.1 © 2001-2010 Moofeel Inc. 本站所有数据均来自网友分享,本站不提供下载,内容如侵犯您的权益请联系:imoofeel@126.com,我们会第一时间删除。