亚虎国际平台官网高品质亚虎国际yahu999论坛 - 提供各种亚虎国际首页亚虎国际yahu999下载

   
搜索
查看: 12759|回复: 144
go

[外文] 《Complicated》Avril Lavigne 艾薇儿[DVD原版/286MB/VOB][百度云]   [复制链接]

Rank: 24Rank: 24Rank: 24Rank: 24Rank: 24Rank: 24
UID
2654 
积分
33696 
威望
3016  
磨币
7987  
帖子
19807 
版主专用勋章 社区巡警勋章 亚虎国际yahu999宗师勋章 SB会员专用勋章 摩羯座
1#
发表于 2011-6-28 13:01 |只看该作者 |倒序浏览 |打印
本帖最后由 changshu008 于 2015-11-10 21:36 编辑

MV名称:Complicated
歌手:Avril Lavigne 艾薇儿
资源格式:VOB




D:\高清MV区\moofeel.com_Avril Lavigne - Complicated.vob
  General
    Complete name : D:\高清MV区\moofeel.com_Avril Lavigne - Complicated.vob
    Format : MPEG-PS
    File size : 287 MiB
    Duration : 4mn 17s
    Overall bit rate : 9 332 Kbps
  Video #224
    ID : 224 (0xE0)
    Format : MPEG Video
    Format version : Version 2
    Format profile : Main@Main
    Format settings, BVOP : Yes
    Format settings, Matrix : Default
    Format settings, GOP : M=3, N=15
    Duration : 4mn 17s
    Bit rate mode : Variable
    Bit rate : 7 800 Kbps
    Width : 720 pixels
    Height : 480 pixels
    Display aspect ratio : 4:3
    Frame rate : 29.970 fps
    Standard : NTSC
    Color space : YUV
    Chroma subsampling : 4:2:0
    Bit depth : 8 bits
    Scan type : Interlaced
    Scan order : Bottom Field First
    Compression mode : Lossy
    Bits/(Pixel*Frame) : 0.753
    Stream size : 234 MiB (82%)
  Audio #189-160
    ID : 189 (0xBD)-160 (0xA0)
    Format : PCM
    Format settings, Endianness : Big
    Format settings, Sign : Signed
    Muxing mode : DVD-Video
    Duration : 4mn 17s
    Bit rate mode : Constant
    Bit rate : 1 536 Kbps
    Channel(s) : 2 channels
    Channel positions : Front: L R
    Sampling rate : 48.0 KHz
    Bit depth : 16 bits
    Delay relative to video : -419ms
    Stream size : 47.2 MiB (16%)

下载地址:
游客,如果你要查看本帖隐藏内容请回复
Rank: 8Rank: 8
UID
3865 
积分
13150 
威望
43  
磨币
217  
帖子
12251 
2#
发表于 2011-6-28 19:59 |只看该作者
艾薇儿啊,不错不错
顶顶了
Rank: 1
UID
81506 
积分
23 
威望
0  
磨币
6  
帖子
23 
3#
发表于 2011-7-3 11:40 |只看该作者
经典了,当年还去买正版
Rank: 1
UID
82669 
积分
威望
0  
磨币
0  
帖子
1 
4#
发表于 2011-7-11 12:19 |只看该作者
最爱Avril ,哈哈哈,顶
Rank: 2
UID
41951 
积分
217 
威望
0  
磨币
379  
帖子
328 
5#
发表于 2011-7-12 18:18 |只看该作者
最爱Avril ,哈哈哈
UID
70600 
积分
57 
威望
0  
磨币
101  
帖子
48 
6#
发表于 2011-7-16 10:55 |只看该作者
提示: 作者被禁止或删除 内容自动屏蔽
Rank: 1
UID
84741 
积分
威望
0  
磨币
0  
帖子
3 
7#
发表于 2011-7-26 15:29 |只看该作者
终于找到了
Rank: 1
UID
6939 
积分
37 
威望
0  
磨币
16  
帖子
40 
8#
发表于 2011-7-28 11:08 |只看该作者
相当不错啦。支持
Rank: 1
UID
96075 
积分
11 
威望
0  
磨币
0  
帖子
11 
9#
发表于 2011-9-30 07:56 |只看该作者
反复发反反复复
已有 1 人评分经验 收起 理由
changshu008 -2 严重灌水
总评分: 经验 -2   查看全部评分
Rank: 1
UID
106368 
积分
威望
0  
磨币
43  
帖子
9 
10#
发表于 2011-11-6 02:18 |只看该作者
j就当买正版了
Rank: 1
UID
109571 
积分
威望
0  
磨币
0  
帖子
3 
11#
发表于 2011-11-14 21:10 |只看该作者
的要覅等也
Rank: 1
UID
109966 
积分
威望
0  
磨币
0  
帖子
3 
12#
发表于 2011-11-15 21:05 |只看该作者
可以 ,好东西
Rank: 1
UID
118796 
积分
威望
0  
磨币
0  
帖子
15 
13#
发表于 2011-12-11 23:33 |只看该作者
继续努力,继续努力
Rank: 1
UID
127284 
积分
威望
0  
磨币
0  
帖子
6 
14#
发表于 2011-12-25 19:05 |只看该作者
xiexie
Rank: 1
UID
131036 
积分
威望
0  
磨币
0  
帖子
1 
15#
发表于 2012-1-1 19:50 |只看该作者
几好听啊!!
‹ 上一主题|下一主题
你需要登录后才可以回帖 登录 | 注册

公告 关闭


密码找回

最近发现有少量会员帐号无法登陆,经后台核实后可在此贴申请找回密码。 回复请提供帐号及常用邮箱一个。 或将以上信息发送至imoofeel@126.com

查看
Archiver|亚虎国际平台官网高品质亚虎国际yahu999论坛 - MOOFEEL.COM GMT+8, 2018-7-21 10:15 , Processed in 0.159808 second(s), 18 queries .
Powered by-亚虎国际首页亚虎国际yahu999 X3.1 © 2001-2010 Moofeel Inc. 本站所有数据均来自网友分享,本站不提供下载,内容如侵犯您的权益请联系:imoofeel@126.com,我们会第一时间删除。