亚虎国际平台官网高品质亚虎国际yahu999论坛 - 提供各种亚虎国际首页亚虎国际yahu999下载

   
搜索
查看: 14117|回复: 277
go

[中文] 《味道》辛晓琪[DVD原版/274MB/VOB][百度云]   [复制链接]

Rank: 24Rank: 24Rank: 24Rank: 24Rank: 24Rank: 24
UID
2654 
积分
33696 
威望
3016  
磨币
7987  
帖子
19807 
版主专用勋章 社区巡警勋章 亚虎国际yahu999宗师勋章 SB会员专用勋章 摩羯座
1#
发表于 2011-6-28 12:50 |只看该作者 |倒序浏览 |打印
本帖最后由 changshu008 于 2015-11-10 21:39 编辑

MV名称:味道
歌手:辛晓琪
资源格式:VOB




D:\高清MV区\moofeel.com_辛晓琪 - 味道.vob
  General
    Complete name : D:\高清MV区\moofeel.com_辛晓琪 - 味道.vob
    Format : MPEG-PS
    File size : 274 MiB
    Duration : 4mn 35s
    Overall bit rate : 8 360 Kbps
  Video #224
    ID : 224 (0xE0)
    Format : MPEG Video
    Format version : Version 2
    Format profile : Main@Main
    Format settings, BVOP : Yes
    Format settings, Matrix : Default
    Format settings, GOP : M=3, N=15
    Duration : 4mn 35s
    Bit rate mode : Variable
    Bit rate : 6 658 Kbps
    Nominal bit rate : 8 264 Kbps
    Width : 720 pixels
    Height : 480 pixels
    Display aspect ratio : 4:3
    Frame rate : 29.970 fps
    Standard : NTSC
    Color space : YUV
    Chroma subsampling : 4:2:0
    Bit depth : 8 bits
    Scan type : Interlaced
    Scan order : Top Field First
    Compression mode : Lossy
    Bits/(Pixel*Frame) : 0.643
    Stream size : 219 MiB (80%)
  Audio #189-160
    ID : 189 (0xBD)-160 (0xA0)
    Format : PCM
    Format settings, Endianness : Big
    Format settings, Sign : Signed
    Muxing mode : DVD-Video
    Duration : 4mn 35s
    Bit rate mode : Constant
    Bit rate : 1 536 Kbps
    Channel(s) : 2 channels
    Channel positions : Front: L R
    Sampling rate : 48.0 KHz
    Bit depth : 16 bits
    Delay relative to video : -219ms
    Stream size : 50.4 MiB (18%)

下载地址:
游客,如果你要查看本帖隐藏内容请回复
Rank: 8Rank: 8
UID
3865 
积分
13150 
威望
43  
磨币
217  
帖子
12251 
2#
发表于 2011-6-28 20:00 |只看该作者
一次也没试过的MM,呵呵
不知道啥感觉
UID
70600 
积分
57 
威望
0  
磨币
101  
帖子
48 
3#
发表于 2011-7-16 10:56 |只看该作者
提示: 作者被禁止或删除 内容自动屏蔽
Rank: 2
UID
60022 
积分
35 
威望
0  
磨币
75  
帖子
33 
4#
发表于 2011-8-4 16:36 |只看该作者
楼主很强大,谢了
Rank: 2
UID
52206 
积分
372 
威望
0  
磨币
216  
帖子
354 
5#
发表于 2011-8-13 14:07 |只看该作者
收藏了·············
Rank: 1
UID
87743 
积分
26 
威望
0  
磨币
105  
帖子
23 
6#
发表于 2011-8-24 11:41 |只看该作者
謝謝大大分享
Rank: 1
UID
28697 
积分
10 
威望
0  
磨币
0  
帖子
9 
7#
发表于 2011-9-8 08:12 |只看该作者
hhhhhhhhhhhhhhhhhhhhhhhhhh
已有 1 人评分经验 收起 理由
changshu008 -2 恶意灌水
总评分: 经验 -2   查看全部评分
Rank: 1
UID
92650 
积分
16 
威望
0  
磨币
0  
帖子
16 
8#
发表于 2011-9-13 08:47 |只看该作者
这首歌很经典
Rank: 1
UID
16946 
积分
25 
威望
0  
磨币
9  
帖子
25 
9#
发表于 2011-9-16 11:42 |只看该作者
想你是你在眼前
Rank: 2
UID
70526 
积分
519 
威望
0  
磨币
55  
帖子
496 
10#
发表于 2011-10-4 23:53 |只看该作者
这真是经典
Rank: 1
UID
97304 
积分
威望
0  
磨币
0  
帖子
4 
11#
发表于 2011-10-5 21:24 |只看该作者
已经是一首非常老的歌了,但是很经典
Rank: 1
UID
98094 
积分
威望
0  
磨币
1  
帖子
4 
12#
发表于 2011-10-9 11:41 |只看该作者
谢谢,太感谢了
Rank: 2
UID
98794 
积分
217 
威望
0  
磨币
0  
帖子
221 
13#
发表于 2011-10-12 13:13 |只看该作者
收藏了·············
Rank: 1
UID
98998 
积分
威望
0  
磨币
0  
帖子
2 
14#
发表于 2011-10-13 01:23 |只看该作者
感谢分享啊,嘿嘿
Rank: 1
UID
113722 
积分
威望
0  
磨币
0  
帖子
4 
15#
发表于 2011-11-24 17:57 |只看该作者
好东西
‹ 上一主题|下一主题
你需要登录后才可以回帖 登录 | 注册

公告 关闭


密码找回

最近发现有少量会员帐号无法登陆,经后台核实后可在此贴申请找回密码。 回复请提供帐号及常用邮箱一个。 或将以上信息发送至imoofeel@126.com

查看
Archiver|亚虎国际平台官网高品质亚虎国际yahu999论坛 - MOOFEEL.COM GMT+8, 2018-7-21 05:50 , Processed in 0.086132 second(s), 18 queries .
Powered by-亚虎国际首页亚虎国际yahu999 X3.1 © 2001-2010 Moofeel Inc. 本站所有数据均来自网友分享,本站不提供下载,内容如侵犯您的权益请联系:imoofeel@126.com,我们会第一时间删除。